<?xml version="1.0" encoding="UTF-8" standalone="no"?>
<svg
   xmlns:dc="http://purl.org/dc/elements/1.1/"
   xmlns:cc="http://creativecommons.org/ns#"
   xmlns:rdf="http://www.w3.org/1999/02/22-rdf-syntax-ns#"
   xmlns:svg="http://www.w3.org/2000/svg"
   xmlns="http://www.w3.org/2000/svg"
   id="svg2"
   xml:space="preserve"
   stroke-linejoin="round"
   stroke-width="28.222"
   fill-rule="evenodd"
   preserveAspectRatio="xMidYMid"
   viewBox="0 0 26689 17969"
   height="179.69mm"
   width="266.89mm"
   version="1.1"><metadata
     id="metadata28386"><rdf:RDF><cc:Work
         rdf:about=""><dc:format>image/svg+xml</dc:format><dc:type
           rdf:resource="http://purl.org/dc/dcmitype/StillImage" /></cc:Work></rdf:RDF></metadata><defs
     id="defs4"
     class="ClipPathGroup"><clipPath
       clipPathUnits="userSpaceOnUse"
       id="presentation_clip_path"><rect
         id="rect7"
         height="17969"
         width="26689"
         y="0"
         x="0" /></clipPath><clipPath
       clipPathUnits="userSpaceOnUse"
       id="presentation_clip_path_shrink"><rect
         id="rect10"
         height="17934"
         width="26636"
         y="17"
         x="26" /></clipPath></defs><defs
     id="defs12"><font
       horiz-adv-x="2048"
       id="EmbeddedFont_1"><font-face
         id="font-face15"
         descent="476"
         ascent="1879"
         font-style="normal"
         font-weight="normal"
         units-per-em="2048"
         font-family="DejaVu Sans embedded" /><missing-glyph
         id="missing-glyph17"
         d="M 0,0 L 2047,0 2047,2047 0,2047 0,0 Z"
         horiz-adv-x="2048" /><glyph
         id="glyph19"
         d="M 940,1638 L 1118,1638 870,1262 735,1262 940,1638 Z M 606,1638 L 776,1638 553,1262 416,1262 606,1638 Z M 174,442 L 174,1120 358,1120 358,449 C 358,343 379,264 420,211 461,158 523,131 606,131 705,131 784,163 842,226 899,289 928,376 928,485 L 928,1120 1112,1120 1112,0 928,0 928,172 C 883,104 832,54 773,21 714,-12 645,-29 567,-29 438,-29 341,11 274,91 207,171 174,288 174,442 Z "
         horiz-adv-x="927"
         unicode="ű" /><glyph
         id="glyph21"
         d="M 174,442 L 174,1120 358,1120 358,449 C 358,343 379,264 420,211 461,158 523,131 606,131 705,131 784,163 842,226 899,289 928,376 928,485 L 928,1120 1112,1120 1112,0 928,0 928,172 C 883,104 832,54 773,21 714,-12 645,-29 567,-29 438,-29 341,11 274,91 207,171 174,288 174,442 Z M 729,1552 L 932,1552 932,1350 729,1350 729,1552 Z M 338,1552 L 541,1552 541,1350 338,1350 338,1552 Z"
         horiz-adv-x="927"
         unicode="ü" /><glyph
         id="glyph23"
         d="M 174,442 L 174,1120 358,1120 358,449 C 358,343 379,264 420,211 461,158 523,131 606,131 705,131 784,163 842,226 899,289 928,376 928,485 L 928,1120 1112,1120 1112,0 928,0 928,172 C 883,104 832,54 773,21 714,-12 645,-29 567,-29 438,-29 341,11 274,91 207,171 174,288 174,442 Z M 774,1638 L 973,1638 647,1262 494,1262 774,1638 Z"
         horiz-adv-x="927"
         unicode="ú" /><glyph
         id="glyph25"
         d="M 627,991 C 528,991 450,953 393,876 336,799 307,693 307,559 307,425 336,320 393,243 450,166 528,127 627,127 725,127 803,166 860,243 917,320 946,426 946,559 946,692 917,797 860,875 803,952 725,991 627,991 Z M 627,1147 C 787,1147 913,1095 1004,991 1095,887 1141,743 1141,559 1141,376 1095,232 1004,128 913,23 787,-29 627,-29 466,-29 341,23 250,128 159,232 113,376 113,559 113,743 159,887 250,991 341,1095 466,1147 627,1147 Z M 766,1638 L 965,1638 639,1262 486,1262 766,1638 Z"
         horiz-adv-x="1033"
         unicode="ó" /><glyph
         id="glyph27"
         d="M 424,1638 L 623,1638 297,1262 144,1262 424,1638 Z M 193,1120 L 377,1120 377,0 193,0 193,1120 Z "
         horiz-adv-x="478"
         unicode="í" /><glyph
         id="glyph29"
         d="M 1151,606 L 1151,516 305,516 C 313,389 351,293 420,227 488,160 583,127 705,127 776,127 844,136 911,153 977,170 1043,196 1108,231 L 1108,57 C 1042,29 974,8 905,-7 836,-22 765,-29 694,-29 515,-29 374,23 270,127 165,231 113,372 113,549 113,732 163,878 262,986 361,1093 494,1147 662,1147 813,1147 932,1099 1020,1002 1107,905 1151,773 1151,606 Z M 967,659 C 966,760 938,841 883,901 828,961 755,991 664,991 561,991 479,962 418,904 356,846 320,764 311,659 L 967,659 Z M 790,1638 L 989,1638 663,1262 510,1262 790,1638 Z"
         horiz-adv-x="1033"
         unicode="é" /><glyph
         id="glyph31"
         d="M 702,563 C 553,563 450,546 393,512 336,478 307,420 307,338 307,273 329,221 372,183 415,144 473,125 547,125 649,125 731,161 793,234 854,306 885,402 885,522 L 885,563 702,563 Z M 1069,639 L 1069,0 885,0 885,170 C 843,102 791,52 728,20 665,-13 589,-29 498,-29 383,-29 292,3 225,68 157,132 123,218 123,326 123,452 165,547 250,611 334,675 460,707 627,707 L 885,707 885,725 C 885,810 857,875 802,922 746,968 668,991 567,991 503,991 441,983 380,968 319,953 261,930 205,899 L 205,1069 C 272,1095 338,1115 401,1128 464,1141 526,1147 586,1147 748,1147 869,1105 949,1021 1029,937 1069,810 1069,639 Z M 733,1638 L 932,1638 606,1262 453,1262 733,1638 Z"
         horiz-adv-x="953"
         unicode="á" /><glyph
         id="glyph33"
         d="M 113,1120 L 987,1120 987,952 295,147 987,147 987,0 88,0 88,168 780,973 113,973 113,1120 Z"
         horiz-adv-x="901"
         unicode="z" /><glyph
         id="glyph35"
         d="M 659,-104 C 607,-237 556,-324 507,-365 458,-406 392,-426 309,-426 L 162,-426 162,-272 270,-272 C 321,-272 360,-260 388,-236 416,-212 447,-155 481,-66 L 514,18 61,1120 256,1120 606,244 956,1120 1151,1120 659,-104 Z"
         horiz-adv-x="1086"
         unicode="y" /><glyph
         id="glyph37"
         d="M 1124,1120 L 719,575 1145,0 928,0 602,440 276,0 59,0 494,586 96,1120 313,1120 610,721 907,1120 1124,1120 Z"
         horiz-adv-x="1086"
         unicode="x" /><glyph
         id="glyph39"
         d="M 61,1120 L 256,1120 606,180 956,1120 1151,1120 731,0 481,0 61,1120 Z"
         horiz-adv-x="1086"
         unicode="v" /><glyph
         id="glyph41"
         d="M 174,442 L 174,1120 358,1120 358,449 C 358,343 379,264 420,211 461,158 523,131 606,131 705,131 784,163 842,226 899,289 928,376 928,485 L 928,1120 1112,1120 1112,0 928,0 928,172 C 883,104 832,54 773,21 714,-12 645,-29 567,-29 438,-29 341,11 274,91 207,171 174,288 174,442 Z "
         horiz-adv-x="927"
         unicode="u" /><glyph
         id="glyph43"
         d="M 375,1438 L 375,1120 754,1120 754,977 375,977 375,369 C 375,278 388,219 413,193 438,167 488,154 565,154 L 754,154 754,0 565,0 C 423,0 325,27 271,80 217,133 190,229 190,369 L 190,977 55,977 55,1120 190,1120 190,1438 375,1438 Z"
         horiz-adv-x="689"
         unicode="t" /><glyph
         id="glyph45"
         d="M 907,1087 L 907,913 C 855,940 801,960 745,973 689,986 631,993 571,993 480,993 411,979 366,951 320,923 297,881 297,825 297,782 313,749 346,725 379,700 444,677 543,655 L 606,641 C 737,613 830,574 885,523 940,472 967,400 967,309 967,205 926,123 844,62 761,1 648,-29 504,-29 444,-29 382,-23 317,-12 252,0 183,18 111,41 L 111,231 C 179,196 246,169 312,152 378,134 443,125 508,125 595,125 661,140 708,170 755,199 778,241 778,295 778,345 761,383 728,410 694,437 620,462 506,487 L 442,502 C 328,526 246,563 195,613 144,662 119,730 119,817 119,922 156,1004 231,1061 306,1118 412,1147 549,1147 617,1147 681,1142 741,1132 801,1122 856,1107 907,1087 Z"
         horiz-adv-x="848"
         unicode="s" /><glyph
         id="glyph47"
         d="M 842,948 C 821,960 799,969 775,975 750,980 723,983 694,983 590,983 510,949 455,882 399,814 371,717 371,590 L 371,0 186,0 186,1120 371,1120 371,946 C 410,1014 460,1065 522,1098 584,1131 659,1147 748,1147 761,1147 775,1146 790,1145 805,1143 822,1140 841,1137 L 842,948 Z"
         horiz-adv-x="663"
         unicode="r" /><glyph
         id="glyph49"
         d="M 371,168 L 371,-426 186,-426 186,1120 371,1120 371,950 C 410,1017 459,1066 518,1099 577,1131 647,1147 729,1147 865,1147 976,1093 1061,985 1146,877 1188,735 1188,559 1188,383 1146,241 1061,133 976,25 865,-29 729,-29 647,-29 577,-13 518,20 459,52 410,101 371,168 Z M 997,559 C 997,694 969,801 914,878 858,955 781,993 684,993 587,993 510,955 455,878 399,801 371,694 371,559 371,424 399,318 455,241 510,164 587,125 684,125 781,125 858,164 914,241 969,318 997,424 997,559 Z"
         horiz-adv-x="1007"
         unicode="p" /><glyph
         id="glyph51"
         d="M 627,991 C 528,991 450,953 393,876 336,799 307,693 307,559 307,425 336,320 393,243 450,166 528,127 627,127 725,127 803,166 860,243 917,320 946,426 946,559 946,692 917,797 860,875 803,952 725,991 627,991 Z M 627,1147 C 787,1147 913,1095 1004,991 1095,887 1141,743 1141,559 1141,376 1095,232 1004,128 913,23 787,-29 627,-29 466,-29 341,23 250,128 159,232 113,376 113,559 113,743 159,887 250,991 341,1095 466,1147 627,1147 Z"
         horiz-adv-x="1033"
         unicode="o" /><glyph
         id="glyph53"
         d="M 1124,676 L 1124,0 940,0 940,670 C 940,776 919,855 878,908 837,961 775,987 692,987 593,987 514,955 457,892 400,829 371,742 371,633 L 371,0 186,0 186,1120 371,1120 371,946 C 415,1013 467,1064 527,1097 586,1130 655,1147 733,1147 862,1147 959,1107 1025,1028 1091,948 1124,831 1124,676 Z"
         horiz-adv-x="927"
         unicode="n" /><glyph
         id="glyph55"
         d="M 1065,905 C 1111,988 1166,1049 1230,1088 1294,1127 1369,1147 1456,1147 1573,1147 1663,1106 1726,1025 1789,943 1821,827 1821,676 L 1821,0 1636,0 1636,670 C 1636,777 1617,857 1579,909 1541,961 1483,987 1405,987 1310,987 1234,955 1179,892 1124,829 1096,742 1096,633 L 1096,0 911,0 911,670 C 911,778 892,858 854,910 816,961 757,987 678,987 584,987 509,955 454,892 399,828 371,742 371,633 L 371,0 186,0 186,1120 371,1120 371,946 C 413,1015 463,1065 522,1098 581,1131 650,1147 731,1147 812,1147 882,1126 939,1085 996,1044 1038,984 1065,905 Z"
         horiz-adv-x="1615"
         unicode="m" /><glyph
         id="glyph57"
         d="M 193,1556 L 377,1556 377,0 193,0 193,1556 Z"
         horiz-adv-x="186"
         unicode="l" /><glyph
         id="glyph59"
         d="M 186,1556 L 371,1556 371,637 920,1120 1155,1120 561,596 1180,0 940,0 371,547 371,0 186,0 186,1556 Z"
         horiz-adv-x="980"
         unicode="k" /><glyph
         id="glyph61"
         d="M 193,1120 L 377,1120 377,-20 C 377,-163 350,-266 296,-330 241,-394 154,-426 33,-426 L -37,-426 -37,-270 12,-270 C 82,-270 130,-254 155,-222 180,-189 193,-122 193,-20 L 193,1120 Z M 193,1556 L 377,1556 377,1323 193,1323 193,1556 Z"
         horiz-adv-x="424"
         unicode="j" /><glyph
         id="glyph63"
         d="M 193,1120 L 377,1120 377,0 193,0 193,1120 Z M 193,1556 L 377,1556 377,1323 193,1323 193,1556 Z"
         horiz-adv-x="186"
         unicode="i" /><glyph
         id="glyph65"
         d="M 1124,676 L 1124,0 940,0 940,670 C 940,776 919,855 878,908 837,961 775,987 692,987 593,987 514,955 457,892 400,829 371,742 371,633 L 371,0 186,0 186,1556 371,1556 371,946 C 415,1013 467,1064 527,1097 586,1130 655,1147 733,1147 862,1147 959,1107 1025,1028 1091,948 1124,831 1124,676 Z"
         horiz-adv-x="927"
         unicode="h" /><glyph
         id="glyph67"
         d="M 930,573 C 930,706 903,810 848,883 793,956 715,993 616,993 517,993 441,956 386,883 331,810 303,706 303,573 303,440 331,337 386,264 441,191 517,154 616,154 715,154 793,191 848,264 903,337 930,440 930,573 Z M 1114,139 C 1114,-52 1072,-193 987,-287 902,-379 773,-426 598,-426 533,-426 472,-421 415,-412 358,-402 302,-387 248,-367 L 248,-188 C 302,-217 355,-239 408,-253 461,-267 514,-274 569,-274 690,-274 780,-242 840,-180 900,-116 930,-21 930,106 L 930,197 C 892,131 843,82 784,49 725,16 654,0 571,0 434,0 323,52 239,157 155,262 113,400 113,573 113,746 155,885 239,990 323,1095 434,1147 571,1147 654,1147 725,1131 784,1098 843,1065 892,1016 930,950 L 930,1120 1114,1120 1114,139 Z"
         horiz-adv-x="1006"
         unicode="g" /><glyph
         id="glyph69"
         d="M 760,1556 L 760,1403 584,1403 C 518,1403 472,1390 447,1363 421,1336 408,1288 408,1219 L 408,1120 711,1120 711,977 408,977 408,0 223,0 223,977 47,977 47,1120 223,1120 223,1198 C 223,1323 252,1414 310,1471 368,1528 460,1556 586,1556 L 760,1556 Z"
         horiz-adv-x="716"
         unicode="f" /><glyph
         id="glyph71"
         d="M 1151,606 L 1151,516 305,516 C 313,389 351,293 420,227 488,160 583,127 705,127 776,127 844,136 911,153 977,170 1043,196 1108,231 L 1108,57 C 1042,29 974,8 905,-7 836,-22 765,-29 694,-29 515,-29 374,23 270,127 165,231 113,372 113,549 113,732 163,878 262,986 361,1093 494,1147 662,1147 813,1147 932,1099 1020,1002 1107,905 1151,773 1151,606 Z M 967,659 C 966,760 938,841 883,901 828,961 755,991 664,991 561,991 479,962 418,904 356,846 320,764 311,659 L 967,659 Z"
         horiz-adv-x="1033"
         unicode="e" /><glyph
         id="glyph73"
         d="M 930,950 L 930,1556 1114,1556 1114,0 930,0 930,168 C 891,101 843,52 784,20 725,-13 654,-29 571,-29 436,-29 326,25 241,133 156,241 113,383 113,559 113,735 156,877 241,985 326,1093 436,1147 571,1147 654,1147 725,1131 784,1099 843,1066 891,1017 930,950 Z M 303,559 C 303,424 331,318 387,241 442,164 519,125 616,125 713,125 790,164 846,241 902,318 930,424 930,559 930,694 902,801 846,878 790,955 713,993 616,993 519,993 442,955 387,878 331,801 303,694 303,559 Z"
         horiz-adv-x="1006"
         unicode="d" /><glyph
         id="glyph75"
         d="M 999,1077 L 999,905 C 947,934 895,955 843,970 790,984 737,991 684,991 565,991 472,953 406,878 340,802 307,696 307,559 307,422 340,316 406,241 472,165 565,127 684,127 737,127 790,134 843,149 895,163 947,184 999,213 L 999,43 C 948,19 895,1 840,-11 785,-23 726,-29 664,-29 495,-29 361,24 262,130 163,236 113,379 113,559 113,742 163,885 264,990 364,1095 501,1147 676,1147 733,1147 788,1141 842,1130 896,1118 948,1100 999,1077 Z"
         horiz-adv-x="874"
         unicode="c" /><glyph
         id="glyph77"
         d="M 997,559 C 997,694 969,801 914,878 858,955 781,993 684,993 587,993 510,955 455,878 399,801 371,694 371,559 371,424 399,318 455,241 510,164 587,125 684,125 781,125 858,164 914,241 969,318 997,424 997,559 Z M 371,950 C 410,1017 459,1066 518,1099 577,1131 647,1147 729,1147 865,1147 976,1093 1061,985 1146,877 1188,735 1188,559 1188,383 1146,241 1061,133 976,25 865,-29 729,-29 647,-29 577,-13 518,20 459,52 410,101 371,168 L 371,0 186,0 186,1556 371,1556 371,950 Z"
         horiz-adv-x="1007"
         unicode="b" /><glyph
         id="glyph79"
         d="M 702,563 C 553,563 450,546 393,512 336,478 307,420 307,338 307,273 329,221 372,183 415,144 473,125 547,125 649,125 731,161 793,234 854,306 885,402 885,522 L 885,563 702,563 Z M 1069,639 L 1069,0 885,0 885,170 C 843,102 791,52 728,20 665,-13 589,-29 498,-29 383,-29 292,3 225,68 157,132 123,218 123,326 123,452 165,547 250,611 334,675 460,707 627,707 L 885,707 885,725 C 885,810 857,875 802,922 746,968 668,991 567,991 503,991 441,983 380,968 319,953 261,930 205,899 L 205,1069 C 272,1095 338,1115 401,1128 464,1141 526,1147 586,1147 748,1147 869,1105 949,1021 1029,937 1069,810 1069,639 Z"
         horiz-adv-x="953"
         unicode="a" /></font></defs><defs
     id="defs81"><font
       horiz-adv-x="2048"
       id="EmbeddedFont_2"><font-face
         id="font-face84"
         descent="476"
         ascent="1879"
         font-style="normal"
         font-weight="bold"
         units-per-em="2048"
         font-family="DejaVu Sans embedded" /><missing-glyph
         id="missing-glyph86"
         d="M 0,0 L 2047,0 2047,2047 0,2047 0,0 Z"
         horiz-adv-x="2048" /><glyph
         id="glyph88"
         d="M 25,1120 L 383,1120 684,360 940,1120 1298,1120 827,-106 C 780,-231 725,-318 662,-368 599,-417 515,-442 412,-442 L 205,-442 205,-207 317,-207 C 378,-207 422,-197 450,-178 477,-159 499,-124 514,-74 L 524,-43 25,1120 Z"
         horiz-adv-x="1271"
         unicode="y" /><glyph
         id="glyph90"
         d="M 31,1120 L 389,1120 668,346 946,1120 1305,1120 864,0 471,0 31,1120 Z"
         horiz-adv-x="1271"
         unicode="v" /><glyph
         id="glyph92"
         d="M 160,436 L 160,1120 520,1120 520,1008 C 520,947 520,871 519,780 518,688 518,627 518,596 518,506 520,441 525,402 530,362 538,333 549,315 564,292 583,274 607,261 630,248 657,242 688,242 763,242 821,271 864,328 907,385 928,465 928,567 L 928,1120 1286,1120 1286,0 928,0 928,162 C 874,97 817,49 757,18 696,-13 630,-29 557,-29 428,-29 329,11 262,90 194,169 160,285 160,436 Z"
         horiz-adv-x="1112"
         unicode="u" /><glyph
         id="glyph94"
         d="M 563,1438 L 563,1120 932,1120 932,864 563,864 563,389 C 563,337 573,302 594,284 615,265 656,256 717,256 L 901,256 901,0 594,0 C 453,0 353,30 294,89 235,148 205,248 205,389 L 205,864 27,864 27,1120 205,1120 205,1438 563,1438 Z"
         horiz-adv-x="901"
         unicode="t" /><glyph
         id="glyph96"
         d="M 1047,1085 L 1047,813 C 970,845 896,869 825,885 754,901 686,909 623,909 555,909 505,901 472,884 439,867 422,840 422,805 422,776 435,754 460,739 485,724 529,712 594,705 L 657,696 C 840,673 964,634 1027,581 1090,528 1122,444 1122,330 1122,211 1078,121 990,61 902,1 771,-29 596,-29 522,-29 446,-23 367,-12 288,0 206,18 123,41 L 123,313 C 194,278 268,252 343,235 418,218 494,209 571,209 641,209 694,219 729,238 764,257 782,286 782,324 782,356 770,380 746,396 721,411 673,423 600,432 L 537,440 C 378,460 266,497 202,551 138,605 106,687 106,797 106,916 147,1004 228,1061 309,1118 434,1147 602,1147 668,1147 737,1142 810,1132 883,1122 962,1106 1047,1085 Z"
         horiz-adv-x="1006"
         unicode="s" /><glyph
         id="glyph98"
         d="M 1004,815 C 973,830 942,841 911,848 880,855 848,858 817,858 725,858 654,829 605,770 555,711 530,626 530,516 L 530,0 172,0 172,1120 530,1120 530,936 C 576,1009 629,1062 689,1095 748,1128 820,1145 903,1145 915,1145 928,1145 942,1145 956,1145 976,1143 1003,1139 L 1004,815 Z"
         horiz-adv-x="821"
         unicode="r" /><glyph
         id="glyph100"
         d="M 530,162 L 530,-426 172,-426 172,1120 530,1120 530,956 C 579,1021 634,1070 694,1101 754,1132 823,1147 901,1147 1039,1147 1152,1092 1241,983 1330,873 1374,732 1374,559 1374,386 1330,245 1241,136 1152,26 1039,-29 901,-29 823,-29 754,-13 694,18 634,49 579,97 530,162 Z M 768,887 C 691,887 633,859 592,803 551,746 530,665 530,559 530,453 551,372 592,316 633,259 691,231 768,231 845,231 903,259 944,315 984,371 1004,452 1004,559 1004,666 984,747 944,803 903,859 845,887 768,887 Z"
         horiz-adv-x="1191"
         unicode="p" /><glyph
         id="glyph102"
         d="M 705,891 C 626,891 565,863 524,806 482,749 461,666 461,559 461,452 482,370 524,313 565,256 626,227 705,227 783,227 843,256 884,313 925,370 946,452 946,559 946,666 925,749 884,806 843,863 783,891 705,891 Z M 705,1147 C 898,1147 1048,1095 1157,991 1265,887 1319,743 1319,559 1319,375 1265,231 1157,127 1048,23 898,-29 705,-29 512,-29 361,23 252,127 143,231 88,375 88,559 88,743 143,887 252,991 361,1095 512,1147 705,1147 Z"
         horiz-adv-x="1218"
         unicode="o" /><glyph
         id="glyph104"
         d="M 1298,682 L 1298,0 938,0 938,111 938,522 C 938,619 936,685 932,722 927,759 920,786 909,803 895,826 876,845 852,858 828,871 801,877 770,877 695,877 637,848 594,791 551,733 530,653 530,551 L 530,0 172,0 172,1120 530,1120 530,956 C 584,1021 641,1070 702,1101 763,1132 830,1147 903,1147 1032,1147 1131,1107 1198,1028 1265,949 1298,833 1298,682 Z"
         horiz-adv-x="1112"
         unicode="n" /><glyph
         id="glyph106"
         d="M 172,1556 L 530,1556 530,0 172,0 172,1556 Z"
         horiz-adv-x="345"
         unicode="l" /><glyph
         id="glyph108"
         d="M 172,1556 L 530,1556 530,709 942,1120 1358,1120 811,606 1401,0 967,0 530,467 530,0 172,0 172,1556 Z"
         horiz-adv-x="1218"
         unicode="k" /><glyph
         id="glyph110"
         d="M 172,1120 L 530,1120 530,0 172,0 172,1120 Z M 172,1556 L 530,1556 530,1264 172,1264 172,1556 Z"
         horiz-adv-x="345"
         unicode="i" /><glyph
         id="glyph112"
         d="M 1298,682 L 1298,0 938,0 938,111 938,520 C 938,618 936,685 932,722 927,759 920,786 909,803 895,826 876,845 852,858 828,871 801,877 770,877 695,877 637,848 594,791 551,733 530,653 530,551 L 530,0 172,0 172,1556 530,1556 530,956 C 584,1021 641,1070 702,1101 763,1132 830,1147 903,1147 1032,1147 1131,1107 1198,1028 1265,949 1298,833 1298,682 Z"
         horiz-adv-x="1112"
         unicode="h" /><glyph
         id="glyph114"
         d="M 934,190 C 885,125 830,77 771,46 712,15 643,0 565,0 428,0 315,54 226,162 137,269 92,406 92,573 92,740 137,878 226,985 315,1092 428,1145 565,1145 643,1145 712,1130 771,1099 830,1068 885,1020 934,954 L 934,1120 1294,1120 1294,113 C 1294,-67 1237,-204 1124,-300 1010,-394 845,-442 629,-442 559,-442 491,-437 426,-426 361,-415 295,-399 229,-377 L 229,-98 C 292,-134 353,-161 413,-179 473,-196 533,-205 594,-205 711,-205 797,-179 852,-128 907,-77 934,4 934,113 L 934,190 Z M 698,887 C 624,887 566,860 525,805 484,750 463,673 463,573 463,470 483,393 523,340 563,287 621,260 698,260 773,260 831,287 872,342 913,397 934,474 934,573 934,673 913,750 872,805 831,860 773,887 698,887 Z"
         horiz-adv-x="1192"
         unicode="g" /><glyph
         id="glyph116"
         d="M 909,1556 L 909,1321 711,1321 C 660,1321 625,1312 605,1294 585,1275 575,1243 575,1198 L 575,1120 881,1120 881,864 575,864 575,0 217,0 217,864 39,864 39,1120 217,1120 217,1198 C 217,1320 251,1410 319,1469 387,1527 492,1556 635,1556 L 909,1556 Z"
         horiz-adv-x="875"
         unicode="f" /><glyph
         id="glyph118"
         d="M 1290,563 L 1290,461 453,461 C 462,377 492,314 544,272 596,230 669,209 762,209 837,209 915,220 994,243 1073,265 1154,299 1237,344 L 1237,68 C 1152,36 1068,12 983,-5 898,-21 814,-29 729,-29 526,-29 369,23 257,126 144,229 88,373 88,559 88,742 143,885 254,990 364,1095 516,1147 709,1147 885,1147 1026,1094 1132,988 1237,882 1290,740 1290,563 Z M 922,682 C 922,750 902,805 863,847 823,888 771,909 707,909 638,909 581,890 538,851 495,812 468,755 457,682 L 922,682 Z"
         horiz-adv-x="1192"
         unicode="e" /><glyph
         id="glyph120"
         d="M 934,956 L 934,1556 1294,1556 1294,0 934,0 934,162 C 885,96 830,48 771,17 712,-14 643,-29 565,-29 427,-29 314,26 225,136 136,245 92,386 92,559 92,732 136,873 225,983 314,1092 427,1147 565,1147 642,1147 711,1132 771,1101 830,1070 885,1021 934,956 Z M 698,231 C 775,231 833,259 874,315 914,371 934,452 934,559 934,666 914,747 874,803 833,859 775,887 698,887 622,887 564,859 524,803 483,747 463,666 463,559 463,452 483,371 524,315 564,259 622,231 698,231 Z"
         horiz-adv-x="1192"
         unicode="d" /><glyph
         id="glyph122"
         d="M 1077,1085 L 1077,793 C 1028,826 980,851 931,867 882,883 831,891 778,891 678,891 600,862 545,804 489,745 461,664 461,559 461,454 489,373 545,315 600,256 678,227 778,227 834,227 887,235 938,252 988,269 1034,293 1077,326 L 1077,33 C 1021,12 964,-3 907,-14 849,-24 791,-29 733,-29 531,-29 373,23 259,127 145,230 88,374 88,559 88,744 145,888 259,992 373,1095 531,1147 733,1147 792,1147 850,1142 907,1132 964,1121 1020,1106 1077,1085 Z"
         horiz-adv-x="980"
         unicode="c" /><glyph
         id="glyph124"
         d="M 768,231 C 845,231 903,259 944,315 984,371 1004,452 1004,559 1004,666 984,747 944,803 903,859 845,887 768,887 691,887 633,859 592,803 551,746 530,665 530,559 530,453 551,372 592,316 633,259 691,231 768,231 Z M 530,956 C 579,1021 634,1070 694,1101 754,1132 823,1147 901,1147 1039,1147 1152,1092 1241,983 1330,873 1374,732 1374,559 1374,386 1330,245 1241,136 1152,26 1039,-29 901,-29 823,-29 754,-13 694,18 634,49 579,97 530,162 L 530,0 172,0 172,1556 530,1556 530,956 Z"
         horiz-adv-x="1191"
         unicode="b" /><glyph
         id="glyph126"
         d="M 674,504 C 599,504 543,491 506,466 468,441 449,403 449,354 449,309 464,273 495,248 525,222 567,209 621,209 688,209 745,233 791,282 837,330 860,390 860,463 L 860,504 674,504 Z M 1221,639 L 1221,0 860,0 860,166 C 812,98 758,49 698,18 638,-13 565,-29 479,-29 363,-29 269,5 197,73 124,140 88,228 88,336 88,467 133,564 224,625 314,686 456,717 649,717 L 860,717 860,745 C 860,802 838,843 793,870 748,896 679,909 584,909 507,909 436,901 370,886 304,871 243,848 186,817 L 186,1090 C 263,1109 340,1123 417,1133 494,1142 572,1147 649,1147 851,1147 997,1107 1087,1028 1176,948 1221,818 1221,639 Z"
         horiz-adv-x="1139"
         unicode="a" /><glyph
         id="glyph128"
         d="M 115,1493 L 1370,1493 1370,1260 569,291 1393,291 1393,0 92,0 92,233 893,1202 115,1202 115,1493 Z"
         horiz-adv-x="1298"
         unicode="Z" /><glyph
         id="glyph130"
         d="M -20,1493 L 401,1493 741,961 1081,1493 1503,1493 934,629 934,0 549,0 549,629 -20,1493 Z"
         horiz-adv-x="1483"
         unicode="Y" /><glyph
         id="glyph132"
         d="M 1020,762 L 1538,0 1137,0 788,510 442,0 39,0 557,762 59,1493 461,1493 788,1012 1114,1493 1518,1493 1020,762 Z"
         horiz-adv-x="1483"
         unicode="X" /><glyph
         id="glyph134"
         d="M 61,1493 L 430,1493 688,408 944,1493 1315,1493 1571,408 1829,1493 2195,1493 1843,0 1399,0 1128,1135 860,0 416,0 61,1493 Z"
         horiz-adv-x="2118"
         unicode="W" /><glyph
         id="glyph136"
         d="M 10,1493 L 397,1493 793,391 1188,1493 1575,1493 1022,0 563,0 10,1493 Z"
         horiz-adv-x="1562"
         unicode="V" /><glyph
         id="glyph138"
         d="M 188,1493 L 573,1493 573,598 C 573,475 593,387 634,334 674,281 740,254 831,254 923,254 989,281 1030,334 1070,387 1090,475 1090,598 L 1090,1493 1475,1493 1475,598 C 1475,387 1422,229 1316,126 1210,23 1048,-29 831,-29 614,-29 453,23 347,126 241,229 188,387 188,598 L 188,1493 Z"
         horiz-adv-x="1271"
         unicode="U" /><glyph
         id="glyph140"
         d="M 10,1493 L 1386,1493 1386,1202 891,1202 891,0 506,0 506,1202 10,1202 10,1493 Z"
         horiz-adv-x="1377"
         unicode="T" /><glyph
         id="glyph142"
         d="M 1227,1446 L 1227,1130 C 1145,1167 1065,1194 987,1213 909,1232 835,1241 766,1241 674,1241 606,1228 562,1203 518,1178 496,1138 496,1085 496,1045 511,1014 541,992 570,969 624,950 702,934 L 866,901 C 1032,868 1150,817 1220,749 1290,681 1325,584 1325,459 1325,294 1276,172 1179,92 1081,11 932,-29 731,-29 636,-29 541,-20 446,-2 351,16 255,43 160,78 L 160,403 C 255,352 348,314 437,289 526,263 611,250 694,250 778,250 842,264 887,292 932,320 954,360 954,412 954,459 939,495 909,520 878,545 818,568 727,588 L 578,621 C 429,653 320,704 251,774 182,844 147,938 147,1057 147,1206 195,1320 291,1400 387,1480 525,1520 705,1520 787,1520 871,1514 958,1502 1045,1489 1134,1471 1227,1446 Z"
         horiz-adv-x="1165"
         unicode="S" /><glyph
         id="glyph144"
         d="M 735,831 C 816,831 874,846 909,876 944,906 961,955 961,1024 961,1092 944,1141 909,1170 874,1199 816,1214 735,1214 L 573,1214 573,831 735,831 Z M 573,565 L 573,0 188,0 188,1493 776,1493 C 973,1493 1117,1460 1209,1394 1300,1328 1346,1224 1346,1081 1346,982 1322,901 1275,838 1227,775 1155,728 1059,698 1112,686 1159,659 1201,617 1242,574 1284,510 1327,424 L 1536,0 1126,0 944,371 C 907,446 870,497 833,524 795,551 745,565 682,565 L 573,565 Z"
         horiz-adv-x="1351"
         unicode="R" /><glyph
         id="glyph146"
         d="M 188,1493 L 827,1493 C 1017,1493 1163,1451 1265,1367 1366,1282 1417,1162 1417,1006 1417,849 1366,729 1265,645 1163,560 1017,518 827,518 L 573,518 573,0 188,0 188,1493 Z M 573,1214 L 573,797 786,797 C 861,797 918,815 959,852 1000,888 1020,939 1020,1006 1020,1073 1000,1124 959,1160 918,1196 861,1214 786,1214 L 573,1214 Z"
         horiz-adv-x="1218"
         unicode="P" /><glyph
         id="glyph148"
         d="M 870,1241 C 753,1241 662,1198 597,1111 532,1024 500,902 500,745 500,588 532,467 597,380 662,293 753,250 870,250 988,250 1079,293 1144,380 1209,467 1241,588 1241,745 1241,902 1209,1024 1144,1111 1079,1198 988,1241 870,1241 Z M 870,1520 C 1110,1520 1298,1451 1434,1314 1570,1177 1638,987 1638,745 1638,504 1570,314 1434,177 1298,40 1110,-29 870,-29 631,-29 443,40 307,177 170,314 102,504 102,745 102,987 170,1177 307,1314 443,1451 631,1520 870,1520 Z"
         horiz-adv-x="1535"
         unicode="O" /><glyph
         id="glyph150"
         d="M 188,1493 L 618,1493 1161,469 1161,1493 1526,1493 1526,0 1096,0 553,1024 553,0 188,0 188,1493 Z"
         horiz-adv-x="1324"
         unicode="N" /><glyph
         id="glyph152"
         d="M 188,1493 L 573,1493 573,291 1249,291 1249,0 188,0 188,1493 Z"
         horiz-adv-x="1060"
         unicode="L" /><glyph
         id="glyph154"
         d="M 188,1493 L 573,1493 573,948 1128,1493 1575,1493 856,786 1649,0 1167,0 573,588 573,0 188,0 188,1493 Z"
         horiz-adv-x="1456"
         unicode="K" /><glyph
         id="glyph156"
         d="M 188,1493 L 573,1493 573,0 188,0 188,1493 Z"
         horiz-adv-x="372"
         unicode="I" /><glyph
         id="glyph158"
         d="M 188,1493 L 573,1493 573,924 1141,924 1141,1493 1526,1493 1526,0 1141,0 1141,633 573,633 573,0 188,0 188,1493 Z"
         horiz-adv-x="1324"
         unicode="H" /><glyph
         id="glyph160"
         d="M 1530,111 C 1434,64 1334,29 1231,6 1128,-17 1021,-29 911,-29 662,-29 465,41 320,180 175,319 102,507 102,745 102,986 176,1175 324,1313 472,1451 675,1520 932,1520 1031,1520 1127,1511 1218,1492 1309,1473 1394,1446 1475,1409 L 1475,1100 C 1392,1147 1309,1183 1227,1206 1144,1229 1062,1241 979,1241 826,1241 708,1198 625,1113 542,1027 500,904 500,745 500,587 540,465 620,379 700,293 814,250 961,250 1001,250 1038,253 1073,258 1107,263 1138,270 1165,281 L 1165,571 930,571 930,829 1530,829 1530,111 Z"
         horiz-adv-x="1430"
         unicode="G" /><glyph
         id="glyph162"
         d="M 188,1493 L 1227,1493 1227,1202 573,1202 573,924 1188,924 1188,633 573,633 573,0 188,0 188,1493 Z"
         horiz-adv-x="1033"
         unicode="F" /><glyph
         id="glyph164"
         d="M 188,1493 L 1227,1493 1227,1202 573,1202 573,924 1188,924 1188,633 573,633 573,291 1249,291 1249,0 188,0 188,1493 Z"
         horiz-adv-x="1060"
         unicode="E" /><glyph
         id="glyph166"
         d="M 573,1202 L 573,291 711,291 C 868,291 989,330 1072,408 1155,486 1196,599 1196,748 1196,896 1155,1009 1072,1086 989,1163 869,1202 711,1202 L 573,1202 Z M 188,1493 L 594,1493 C 821,1493 990,1477 1101,1445 1212,1412 1307,1357 1386,1280 1456,1213 1508,1135 1542,1047 1576,959 1593,859 1593,748 1593,635 1576,535 1542,447 1508,358 1456,280 1386,213 1306,136 1210,81 1098,49 986,16 818,0 594,0 L 188,0 188,1493 Z"
         horiz-adv-x="1404"
         unicode="D" /><glyph
         id="glyph168"
         d="M 1372,82 C 1301,45 1228,18 1151,-1 1074,-20 994,-29 911,-29 662,-29 465,41 320,180 175,319 102,507 102,745 102,984 175,1173 320,1312 465,1451 662,1520 911,1520 994,1520 1074,1511 1151,1492 1228,1473 1301,1446 1372,1409 L 1372,1100 C 1301,1149 1230,1184 1161,1207 1092,1230 1019,1241 942,1241 805,1241 697,1197 618,1109 539,1021 500,900 500,745 500,591 539,470 618,382 697,294 805,250 942,250 1019,250 1092,261 1161,284 1230,307 1301,342 1372,391 L 1372,82 Z"
         horiz-adv-x="1271"
         unicode="C" /><glyph
         id="glyph170"
         d="M 786,915 C 847,915 893,928 924,955 955,982 971,1021 971,1073 971,1124 955,1164 924,1191 893,1218 847,1231 786,1231 L 573,1231 573,915 786,915 Z M 799,262 C 876,262 935,278 974,311 1013,344 1032,393 1032,459 1032,524 1013,572 974,605 935,637 877,653 799,653 L 573,653 573,262 799,262 Z M 1157,799 C 1240,775 1304,731 1349,666 1394,601 1417,522 1417,428 1417,284 1368,177 1271,106 1174,35 1026,0 827,0 L 188,0 188,1493 766,1493 C 973,1493 1124,1462 1217,1399 1310,1336 1356,1236 1356,1098 1356,1025 1339,964 1305,913 1271,862 1222,824 1157,799 Z"
         horiz-adv-x="1218"
         unicode="B" /><glyph
         id="glyph172"
         d="M 1094,272 L 492,272 397,0 10,0 563,1493 1022,1493 1575,0 1188,0 1094,272 Z M 588,549 L 997,549 793,1143 588,549 Z"
         horiz-adv-x="1562"
         unicode="A" /></font></defs><defs
     id="defs174"><font
       horiz-adv-x="2048"
       id="EmbeddedFont_3"><font-face
         id="font-face177"
         descent="476"
         ascent="1879"
         font-style="normal"
         font-weight="normal"
         units-per-em="2048"
         font-family="DejaVu Sans Condensed embedded" /><missing-glyph
         id="missing-glyph179"
         d="M 0,0 L 2047,0 2047,2047 0,2047 0,0 Z"
         horiz-adv-x="2048" /><glyph
         id="glyph181"
         d="M 482,-512 L 482,368 C 482,452 468,515 441,556 414,597 373,618 320,618 L -18,618 -18,790 320,790 C 421,790 498,748 549,663 600,578 626,480 626,368 L 626,-512 482,-512 Z"
         horiz-adv-x="662"
         unicode="╮" /><glyph
         id="glyph183"
         d="M 482,-512 L 482,368 C 482,478 508,576 559,662 610,747 686,790 788,790 L 1128,790 1128,618 788,618 C 735,618 694,597 667,555 640,513 626,451 626,368 L 626,-512 482,-512 Z"
         horiz-adv-x="663"
         unicode="╭" /><glyph
         id="glyph185"
         d="M -18,618 L -18,790 1128,790 1128,618 -18,618 Z"
         horiz-adv-x="1165"
         unicode="─" /><glyph
         id="glyph187"
         horiz-adv-x="1"
         unicode=" " /><glyph
         id="glyph189"
         d="M 90,633 L 832,633 832,489 90,489 90,633 Z"
         horiz-adv-x="769"
         unicode="–" /><glyph
         id="glyph191"
         d="M 157,442 L 157,1120 322,1120 322,449 C 322,343 341,264 378,211 415,158 471,131 545,131 635,131 706,163 758,226 809,289 835,376 835,485 L 835,1120 1001,1120 1001,0 835,0 835,172 C 795,104 749,54 696,21 643,-12 581,-29 510,-29 395,-29 307,11 247,91 187,171 157,288 157,442 Z M 697,1638 L 876,1638 583,1262 445,1262 697,1638 Z"
         horiz-adv-x="874"
         unicode="ú" /><glyph
         id="glyph193"
         d="M 564,991 C 475,991 405,953 354,876 302,799 276,693 276,559 276,425 302,320 353,243 404,166 475,127 564,127 653,127 723,166 774,243 825,320 851,426 851,559 851,692 825,797 774,875 723,952 653,991 564,991 Z M 564,1147 C 708,1147 821,1095 904,991 986,887 1027,743 1027,559 1027,376 986,232 904,128 821,23 708,-29 564,-29 419,-29 306,23 225,128 143,232 102,376 102,559 102,743 143,887 225,991 306,1095 419,1147 564,1147 Z M 649,1552 L 832,1552 832,1350 649,1350 649,1552 Z M 298,1552 L 480,1552 480,1350 298,1350 298,1552 Z"
         horiz-adv-x="954"
         unicode="ö" /><glyph
         id="glyph195"
         d="M 564,991 C 475,991 405,953 354,876 302,799 276,693 276,559 276,425 302,320 353,243 404,166 475,127 564,127 653,127 723,166 774,243 825,320 851,426 851,559 851,692 825,797 774,875 723,952 653,991 564,991 Z M 564,1147 C 708,1147 821,1095 904,991 986,887 1027,743 1027,559 1027,376 986,232 904,128 821,23 708,-29 564,-29 419,-29 306,23 225,128 143,232 102,376 102,559 102,743 143,887 225,991 306,1095 419,1147 564,1147 Z M 690,1638 L 869,1638 576,1262 438,1262 690,1638 Z"
         horiz-adv-x="954"
         unicode="ó" /><glyph
         id="glyph197"
         d="M 382,1638 L 561,1638 268,1262 130,1262 382,1638 Z M 174,1120 L 339,1120 339,0 174,0 174,1120 Z "
         horiz-adv-x="451"
         unicode="í" /><glyph
         id="glyph199"
         d="M 1036,606 L 1036,516 274,516 C 281,389 316,293 378,227 439,160 525,127 634,127 698,127 760,136 820,153 879,170 938,196 997,231 L 997,57 C 938,29 877,8 815,-7 752,-22 689,-29 625,-29 464,-29 336,23 243,127 149,231 102,372 102,549 102,732 147,878 236,986 325,1093 445,1147 596,1147 731,1147 839,1099 918,1002 997,905 1036,773 1036,606 Z M 870,659 C 869,760 843,841 794,901 745,961 679,991 598,991 505,991 431,962 376,904 320,846 288,764 280,659 L 870,659 Z M 711,1638 L 890,1638 597,1262 459,1262 711,1638 Z"
         horiz-adv-x="954"
         unicode="é" /><glyph
         id="glyph201"
         d="M 632,563 C 498,563 405,546 354,512 302,478 276,420 276,338 276,273 295,221 334,183 373,144 425,125 492,125 584,125 658,161 713,234 768,306 796,402 796,522 L 796,563 632,563 Z M 962,639 L 962,0 796,0 796,170 C 759,102 712,52 656,20 599,-13 530,-29 448,-29 345,-29 263,3 202,68 141,132 111,218 111,326 111,452 149,547 225,611 300,675 413,707 564,707 L 796,707 796,725 C 796,810 771,875 721,922 671,968 601,991 510,991 453,991 397,983 342,968 287,953 235,930 184,899 L 184,1069 C 245,1095 304,1115 361,1128 418,1141 473,1147 527,1147 673,1147 782,1105 854,1021 926,937 962,810 962,639 Z M 660,1638 L 839,1638 546,1262 408,1262 660,1638 Z"
         horiz-adv-x="874"
         unicode="á" /><glyph
         id="glyph203"
         d="M 102,1120 L 888,1120 888,952 266,147 888,147 888,0 79,0 79,168 702,973 102,973 102,1120 Z"
         horiz-adv-x="848"
         unicode="z" /><glyph
         id="glyph205"
         d="M 55,1120 L 230,1120 545,180 860,1120 1036,1120 658,0 433,0 55,1120 Z"
         horiz-adv-x="980"
         unicode="v" /><glyph
         id="glyph207"
         d="M 157,442 L 157,1120 322,1120 322,449 C 322,343 341,264 378,211 415,158 471,131 545,131 635,131 706,163 758,226 809,289 835,376 835,485 L 835,1120 1001,1120 1001,0 835,0 835,172 C 795,104 749,54 696,21 643,-12 581,-29 510,-29 395,-29 307,11 247,91 187,171 157,288 157,442 Z "
         horiz-adv-x="874"
         unicode="u" /><glyph
         id="glyph209"
         d="M 338,1438 L 338,1120 679,1120 679,977 338,977 338,369 C 338,278 349,219 372,193 394,167 439,154 508,154 L 679,154 679,0 508,0 C 381,0 293,27 244,80 195,133 171,229 171,369 L 171,977 50,977 50,1120 171,1120 171,1438 338,1438 Z"
         horiz-adv-x="663"
         unicode="t" /><glyph
         id="glyph211"
         d="M 816,1087 L 816,913 C 769,940 721,960 671,973 620,986 568,993 514,993 432,993 370,979 329,951 288,923 267,881 267,825 267,782 282,749 312,725 341,700 400,677 489,655 L 545,641 C 663,613 747,574 796,523 845,472 870,400 870,309 870,205 833,123 759,62 685,1 583,-29 454,-29 400,-29 344,-23 285,-12 226,0 165,18 100,41 L 100,231 C 161,196 222,169 281,152 340,134 399,125 457,125 535,125 595,140 637,170 679,199 700,241 700,295 700,345 685,383 655,410 624,437 558,462 455,487 L 398,502 C 295,526 221,563 176,613 130,662 107,730 107,817 107,922 141,1004 208,1061 275,1118 371,1147 494,1147 555,1147 613,1142 667,1132 721,1122 771,1107 816,1087 Z"
         horiz-adv-x="795"
         unicode="s" /><glyph
         id="glyph213"
         d="M 758,948 C 739,960 719,969 697,975 675,980 651,983 625,983 531,983 459,949 409,882 359,814 334,717 334,590 L 334,0 167,0 167,1120 334,1120 334,946 C 369,1014 414,1065 470,1098 526,1131 594,1147 673,1147 684,1147 697,1146 711,1145 725,1143 740,1140 757,1137 L 758,948 Z"
         horiz-adv-x="609"
         unicode="r" /><glyph
         id="glyph215"
         d="M 334,168 L 334,-426 167,-426 167,1120 334,1120 334,950 C 369,1017 413,1066 466,1099 519,1131 582,1147 656,1147 779,1147 878,1093 955,985 1031,877 1069,735 1069,559 1069,383 1031,241 955,133 878,25 779,-29 656,-29 582,-29 519,-13 466,20 413,52 369,101 334,168 Z M 897,559 C 897,694 872,801 822,878 772,955 703,993 616,993 528,993 459,955 409,878 359,801 334,694 334,559 334,424 359,318 409,241 459,164 528,125 616,125 703,125 772,164 822,241 872,318 897,424 897,559 Z"
         horiz-adv-x="927"
         unicode="p" /><glyph
         id="glyph217"
         d="M 564,991 C 475,991 405,953 354,876 302,799 276,693 276,559 276,425 302,320 353,243 404,166 475,127 564,127 653,127 723,166 774,243 825,320 851,426 851,559 851,692 825,797 774,875 723,952 653,991 564,991 Z M 564,1147 C 708,1147 821,1095 904,991 986,887 1027,743 1027,559 1027,376 986,232 904,128 821,23 708,-29 564,-29 419,-29 306,23 225,128 143,232 102,376 102,559 102,743 143,887 225,991 306,1095 419,1147 564,1147 Z"
         horiz-adv-x="954"
         unicode="o" /><glyph
         id="glyph219"
         d="M 1012,676 L 1012,0 846,0 846,670 C 846,776 827,855 790,908 753,961 697,987 623,987 534,987 463,955 412,892 360,829 334,742 334,633 L 334,0 167,0 167,1120 334,1120 334,946 C 373,1013 420,1064 474,1097 527,1130 589,1147 660,1147 775,1147 863,1107 923,1028 982,948 1012,831 1012,676 Z"
         horiz-adv-x="874"
         unicode="n" /><glyph
         id="glyph221"
         d="M 958,905 C 1000,988 1050,1049 1107,1088 1164,1127 1232,1147 1310,1147 1415,1147 1497,1106 1554,1025 1611,943 1639,827 1639,676 L 1639,0 1472,0 1472,670 C 1472,777 1455,857 1421,909 1387,961 1335,987 1264,987 1179,987 1111,955 1061,892 1011,829 986,742 986,633 L 986,0 820,0 820,670 C 820,778 803,858 769,910 734,961 681,987 610,987 525,987 458,955 409,892 359,828 334,742 334,633 L 334,0 167,0 167,1120 334,1120 334,946 C 372,1015 417,1065 470,1098 523,1131 585,1147 658,1147 731,1147 794,1126 845,1085 896,1044 934,984 958,905 Z"
         horiz-adv-x="1482"
         unicode="m" /><glyph
         id="glyph223"
         d="M 174,1556 L 339,1556 339,0 174,0 174,1556 Z"
         horiz-adv-x="186"
         unicode="l" /><glyph
         id="glyph225"
         d="M 167,1556 L 334,1556 334,637 828,1120 1040,1120 505,596 1062,0 846,0 334,547 334,0 167,0 167,1556 Z"
         horiz-adv-x="900"
         unicode="k" /><glyph
         id="glyph227"
         d="M 174,1120 L 339,1120 339,0 174,0 174,1120 Z M 174,1556 L 339,1556 339,1323 174,1323 174,1556 Z"
         horiz-adv-x="186"
         unicode="i" /><glyph
         id="glyph229"
         d="M 1012,676 L 1012,0 846,0 846,670 C 846,776 827,855 790,908 753,961 697,987 623,987 534,987 463,955 412,892 360,829 334,742 334,633 L 334,0 167,0 167,1556 334,1556 334,946 C 373,1013 420,1064 474,1097 527,1130 589,1147 660,1147 775,1147 863,1107 923,1028 982,948 1012,831 1012,676 Z"
         horiz-adv-x="874"
         unicode="h" /><glyph
         id="glyph231"
         d="M 837,573 C 837,706 812,810 763,883 713,956 643,993 554,993 465,993 396,956 347,883 298,810 273,706 273,573 273,440 298,337 347,264 396,191 465,154 554,154 643,154 713,191 763,264 812,337 837,440 837,573 Z M 1003,139 C 1003,-52 965,-193 889,-287 812,-379 695,-426 538,-426 480,-426 425,-421 374,-412 322,-402 272,-387 223,-367 L 223,-188 C 272,-217 320,-239 367,-253 414,-267 463,-274 512,-274 621,-274 702,-242 756,-180 810,-116 837,-21 837,106 L 837,197 C 803,131 759,82 706,49 653,16 589,0 514,0 390,0 290,52 215,157 140,262 102,400 102,573 102,746 140,885 215,990 290,1095 390,1147 514,1147 589,1147 653,1131 706,1098 759,1065 803,1016 837,950 L 837,1120 1003,1120 1003,139 Z"
         horiz-adv-x="927"
         unicode="g" /><glyph
         id="glyph233"
         d="M 684,1556 L 684,1403 526,1403 C 466,1403 425,1390 402,1363 379,1336 367,1288 367,1219 L 367,1120 640,1120 640,977 367,977 367,0 201,0 201,977 42,977 42,1120 201,1120 201,1198 C 201,1323 227,1414 279,1471 331,1528 414,1556 527,1556 L 684,1556 Z"
         horiz-adv-x="663"
         unicode="f" /><glyph
         id="glyph235"
         d="M 1036,606 L 1036,516 274,516 C 281,389 316,293 378,227 439,160 525,127 634,127 698,127 760,136 820,153 879,170 938,196 997,231 L 997,57 C 938,29 877,8 815,-7 752,-22 689,-29 625,-29 464,-29 336,23 243,127 149,231 102,372 102,549 102,732 147,878 236,986 325,1093 445,1147 596,1147 731,1147 839,1099 918,1002 997,905 1036,773 1036,606 Z M 870,659 C 869,760 843,841 794,901 745,961 679,991 598,991 505,991 431,962 376,904 320,846 288,764 280,659 L 870,659 Z"
         horiz-adv-x="954"
         unicode="e" /><glyph
         id="glyph237"
         d="M 837,950 L 837,1556 1003,1556 1003,0 837,0 837,168 C 802,101 759,52 706,20 653,-13 589,-29 514,-29 392,-29 293,25 217,133 140,241 102,383 102,559 102,735 140,877 217,985 293,1093 392,1147 514,1147 589,1147 653,1131 706,1099 759,1066 802,1017 837,950 Z M 273,559 C 273,424 298,318 348,241 398,164 467,125 554,125 642,125 711,164 762,241 812,318 837,424 837,559 837,694 812,801 762,878 711,955 642,993 554,993 467,993 398,955 348,878 298,801 273,694 273,559 Z"
         horiz-adv-x="927"
         unicode="d" /><glyph
         id="glyph239"
         d="M 899,1077 L 899,905 C 852,934 806,955 759,970 712,984 664,991 616,991 508,991 424,953 365,878 306,802 276,696 276,559 276,422 306,316 365,241 424,165 508,127 616,127 664,127 712,134 759,149 806,163 852,184 899,213 L 899,43 C 853,19 805,1 756,-11 706,-23 653,-29 598,-29 446,-29 325,24 236,130 147,236 102,379 102,559 102,742 147,885 238,990 328,1095 451,1147 608,1147 659,1147 709,1141 758,1130 807,1118 854,1100 899,1077 Z"
         horiz-adv-x="822"
         unicode="c" /><glyph
         id="glyph241"
         d="M 897,559 C 897,694 872,801 822,878 772,955 703,993 616,993 528,993 459,955 409,878 359,801 334,694 334,559 334,424 359,318 409,241 459,164 528,125 616,125 703,125 772,164 822,241 872,318 897,424 897,559 Z M 334,950 C 369,1017 413,1066 466,1099 519,1131 582,1147 656,1147 779,1147 878,1093 955,985 1031,877 1069,735 1069,559 1069,383 1031,241 955,133 878,25 779,-29 656,-29 582,-29 519,-13 466,20 413,52 369,101 334,168 L 334,0 167,0 167,1556 334,1556 334,950 Z"
         horiz-adv-x="927"
         unicode="b" /><glyph
         id="glyph243"
         d="M 632,563 C 498,563 405,546 354,512 302,478 276,420 276,338 276,273 295,221 334,183 373,144 425,125 492,125 584,125 658,161 713,234 768,306 796,402 796,522 L 796,563 632,563 Z M 962,639 L 962,0 796,0 796,170 C 759,102 712,52 656,20 599,-13 530,-29 448,-29 345,-29 263,3 202,68 141,132 111,218 111,326 111,452 149,547 225,611 300,675 413,707 564,707 L 796,707 796,725 C 796,810 771,875 721,922 671,968 601,991 510,991 453,991 397,983 342,968 287,953 235,930 184,899 L 184,1069 C 245,1095 304,1115 361,1128 418,1141 473,1147 527,1147 673,1147 782,1105 854,1021 926,937 962,810 962,639 Z"
         horiz-adv-x="874"
         unicode="a" /><glyph
         id="glyph245"
         d="M 561,1556 L 561,-270 179,-270 179,-127 394,-127 394,1413 179,1413 179,1556 561,1556 Z"
         horiz-adv-x="424"
         unicode="]" /><glyph
         id="glyph247"
         d="M 158,1556 L 540,1556 540,1413 324,1413 324,-127 540,-127 540,-270 158,-270 158,1556 Z"
         horiz-adv-x="425"
         unicode="[" /><glyph
         id="glyph249"
         d="M 104,1493 L 1159,1493 1159,1339 310,170 1180,170 1180,0 83,0 83,154 932,1323 104,1323 104,1493 Z"
         horiz-adv-x="1113"
         unicode="Z" /><glyph
         id="glyph251"
         d="M 527,0 L 14,1493 204,1493 630,236 1057,1493 1246,1493 734,0 527,0 Z"
         horiz-adv-x="1245"
         unicode="V" /><glyph
         id="glyph253"
         d="M -4,1493 L 1132,1493 1132,1323 655,1323 655,0 473,0 473,1323 -4,1323 -4,1493 Z"
         horiz-adv-x="1165"
         unicode="T" /><glyph
         id="glyph255"
         d="M 986,1444 L 986,1247 C 917,1284 852,1311 791,1329 730,1347 671,1356 614,1356 515,1356 438,1335 385,1292 331,1249 304,1189 304,1110 304,1044 322,994 358,961 393,927 461,900 561,879 L 670,854 C 806,825 906,775 971,703 1035,630 1067,533 1067,412 1067,267 1024,158 937,83 850,8 722,-29 553,-29 489,-29 421,-21 350,-5 278,11 204,35 127,66 L 127,274 C 201,228 273,193 344,170 415,147 484,135 553,135 656,135 736,158 793,203 850,248 878,313 878,397 878,470 858,528 817,569 776,610 710,641 617,662 L 507,686 C 371,716 273,763 213,827 152,891 122,980 122,1094 122,1226 164,1330 248,1406 331,1482 446,1520 593,1520 656,1520 721,1514 786,1501 851,1488 918,1469 986,1444 Z"
         horiz-adv-x="980"
         unicode="S" /><glyph
         id="glyph257"
         d="M 726,1356 C 594,1356 489,1301 412,1192 334,1083 295,934 295,745 295,557 334,408 412,299 489,190 594,135 726,135 858,135 963,190 1040,299 1117,408 1156,557 1156,745 1156,934 1117,1083 1040,1192 963,1301 858,1356 726,1356 Z M 726,1520 C 915,1520 1065,1450 1178,1310 1291,1169 1347,981 1347,745 1347,510 1291,322 1178,182 1065,41 915,-29 726,-29 537,-29 387,41 274,181 161,321 104,509 104,745 104,981 161,1169 274,1310 387,1450 537,1520 726,1520 Z"
         horiz-adv-x="1271"
         unicode="O" /><glyph
         id="glyph259"
         d="M 181,1493 L 426,1493 1022,244 1022,1493 1198,1493 1198,0 953,0 357,1249 357,0 181,0 181,1493 Z"
         horiz-adv-x="1059"
         unicode="N" /><glyph
         id="glyph261"
         d="M 181,1493 L 452,1493 795,477 1139,1493 1410,1493 1410,0 1233,0 1233,1311 886,287 704,287 357,1311 357,0 181,0 181,1493 Z"
         horiz-adv-x="1271"
         unicode="M" /><glyph
         id="glyph263"
         d="M 181,1493 L 363,1493 363,170 1017,170 1017,0 181,0 181,1493 Z"
         horiz-adv-x="874"
         unicode="L" /><glyph
         id="glyph265"
         d="M 181,1493 L 363,1493 363,0 181,0 181,1493 Z"
         horiz-adv-x="212"
         unicode="I" /><glyph
         id="glyph267"
         d="M 181,1493 L 363,1493 363,881 1023,881 1023,1493 1205,1493 1205,0 1023,0 1023,711 363,711 363,0 181,0 181,1493 Z"
         horiz-adv-x="1059"
         unicode="H" /><glyph
         id="glyph269"
         d="M 1187,1378 L 1187,1165 C 1126,1228 1060,1276 991,1307 922,1338 848,1354 770,1354 617,1354 499,1302 418,1198 336,1093 295,942 295,745 295,548 336,398 418,294 499,189 617,137 770,137 848,137 922,153 991,184 1060,215 1126,263 1187,326 L 1187,115 C 1124,67 1056,31 985,7 914,-17 839,-29 760,-29 556,-29 396,40 279,179 162,317 104,506 104,745 104,985 162,1174 279,1313 396,1451 556,1520 760,1520 840,1520 916,1508 987,1485 1058,1461 1125,1425 1187,1378 Z"
         horiz-adv-x="1113"
         unicode="C" /><glyph
         id="glyph271"
         d="M 363,713 L 363,166 654,166 C 752,166 825,189 872,234 919,279 942,347 942,440 942,533 919,602 872,647 825,691 752,713 654,713 L 363,713 Z M 363,1327 L 363,877 632,877 C 721,877 787,896 831,933 874,970 896,1026 896,1102 896,1177 874,1234 831,1271 787,1308 721,1327 632,1327 L 363,1327 Z M 181,1493 L 645,1493 C 784,1493 891,1461 966,1397 1041,1333 1078,1242 1078,1124 1078,1033 1059,960 1021,906 982,852 926,818 851,805 941,784 1011,739 1060,672 1109,604 1134,519 1134,418 1134,285 1093,182 1012,109 930,36 814,0 663,0 L 181,0 181,1493 Z"
         horiz-adv-x="980"
         unicode="B" /><glyph
         id="glyph273"
         d="M 630,1294 L 383,551 878,551 630,1294 Z M 527,1493 L 734,1493 1246,0 1057,0 934,383 328,383 206,0 14,0 527,1493 Z"
         horiz-adv-x="1245"
         unicode="A" /><glyph
         id="glyph275"
         d="M 216,254 L 406,254 406,0 216,0 216,254 Z M 216,1059 L 406,1059 406,805 216,805 216,1059 Z"
         horiz-adv-x="212"
         unicode=":" /><glyph
         id="glyph277"
         d="M 202,31 L 202,215 C 248,191 294,173 341,160 388,147 434,141 479,141 599,141 691,186 754,276 817,365 853,501 862,684 827,627 783,583 730,552 677,521 618,506 553,506 418,506 312,551 234,642 155,732 116,855 116,1012 116,1165 157,1288 239,1381 320,1474 429,1520 564,1520 719,1520 838,1454 920,1322 1002,1189 1043,997 1043,745 1043,510 993,322 893,182 792,41 657,-29 487,-29 441,-29 395,-24 348,-14 301,-4 253,11 202,31 Z M 564,664 C 646,664 711,695 759,757 806,819 830,904 830,1012 830,1119 806,1204 759,1267 711,1329 646,1360 564,1360 483,1360 418,1329 371,1267 323,1204 299,1119 299,1012 299,904 323,819 371,757 418,695 483,664 564,664 Z"
         horiz-adv-x="953"
         unicode="9" /><glyph
         id="glyph279"
         d="M 586,709 C 499,709 431,683 382,632 333,581 308,510 308,420 308,330 333,259 382,208 431,157 499,131 586,131 673,131 741,157 791,209 840,260 865,331 865,420 865,510 840,581 791,632 741,683 673,709 586,709 Z M 404,795 C 326,816 265,857 222,916 179,975 157,1048 157,1133 157,1252 195,1347 272,1416 348,1485 453,1520 586,1520 720,1520 825,1485 901,1416 977,1347 1015,1252 1015,1133 1015,1048 993,975 950,916 907,857 846,816 769,795 856,772 925,728 974,662 1023,596 1047,515 1047,420 1047,275 1007,164 928,87 848,10 734,-29 586,-29 438,-29 324,10 245,87 165,164 125,275 125,420 125,515 150,596 199,662 248,728 317,772 404,795 Z M 338,1114 C 338,1037 360,976 403,933 446,890 507,868 586,868 664,868 725,890 769,933 813,976 835,1037 835,1114 835,1191 813,1252 769,1295 725,1338 664,1360 586,1360 507,1360 446,1338 403,1295 360,1252 338,1191 338,1114 Z"
         horiz-adv-x="953"
         unicode="8" /><glyph
         id="glyph281"
         d="M 151,1493 L 1015,1493 1015,1407 527,0 338,0 796,1323 151,1323 151,1493 Z"
         horiz-adv-x="901"
         unicode="7" /><glyph
         id="glyph283"
         d="M 608,827 C 527,827 462,796 415,734 367,672 343,587 343,479 343,372 367,287 415,225 462,162 527,131 608,131 690,131 755,162 803,225 850,287 874,372 874,479 874,587 850,672 803,734 755,796 690,827 608,827 Z M 969,1460 L 969,1276 C 924,1300 878,1318 831,1331 784,1344 738,1350 693,1350 573,1350 481,1305 418,1215 355,1125 319,989 310,807 345,865 390,910 443,941 496,972 555,987 619,987 754,987 861,942 940,851 1018,760 1057,636 1057,479 1057,326 1016,203 935,110 853,17 744,-29 608,-29 453,-29 334,37 252,170 170,302 129,494 129,745 129,981 179,1169 280,1310 381,1450 516,1520 686,1520 731,1520 777,1515 824,1505 871,1495 919,1480 969,1460 Z"
         horiz-adv-x="953"
         unicode="6" /><glyph
         id="glyph285"
         d="M 199,1493 L 913,1493 913,1323 365,1323 365,957 C 392,967 418,975 445,980 471,985 497,987 524,987 674,987 793,941 881,850 968,759 1012,635 1012,479 1012,318 967,194 877,105 787,16 660,-29 496,-29 439,-29 382,-24 324,-13 265,-2 205,14 142,35 L 142,238 C 196,205 252,181 310,165 367,149 428,141 492,141 596,141 678,171 739,232 800,293 830,375 830,479 830,583 800,665 739,726 678,787 596,817 492,817 443,817 395,811 347,799 298,787 249,768 199,743 L 199,1493 Z"
         horiz-adv-x="901"
         unicode="5" /><glyph
         id="glyph287"
         d="M 697,1317 L 238,520 697,520 697,1317 Z M 649,1493 L 878,1493 878,520 1069,520 1069,352 878,352 878,0 697,0 697,352 90,352 90,547 649,1493 Z"
         horiz-adv-x="1007"
         unicode="4" /><glyph
         id="glyph289"
         d="M 748,805 C 835,784 903,741 952,676 1001,611 1025,530 1025,434 1025,287 980,173 889,92 798,11 668,-29 500,-29 443,-29 385,-23 326,-11 266,2 204,20 140,45 L 140,240 C 191,207 246,183 306,166 366,149 429,141 494,141 608,141 695,166 755,216 814,266 844,339 844,434 844,522 816,591 761,641 706,690 628,715 529,715 L 373,715 373,881 536,881 C 625,881 694,901 742,941 789,980 813,1037 813,1112 813,1189 789,1248 740,1289 691,1330 620,1350 529,1350 479,1350 426,1344 369,1332 312,1320 250,1301 181,1276 L 181,1456 C 250,1477 314,1493 375,1504 435,1515 492,1520 545,1520 683,1520 792,1485 873,1416 954,1346 994,1252 994,1133 994,1050 973,981 930,924 887,867 827,827 748,805 Z"
         horiz-adv-x="901"
         unicode="3" /><glyph
         id="glyph291"
         d="M 354,170 L 988,170 988,0 135,0 135,170 C 204,249 298,356 417,490 536,623 611,709 642,748 700,821 741,882 764,933 787,983 798,1032 798,1081 798,1160 773,1225 723,1275 673,1325 608,1350 527,1350 470,1350 410,1339 347,1317 284,1295 216,1262 144,1217 L 144,1421 C 217,1454 286,1478 350,1495 413,1512 471,1520 524,1520 663,1520 774,1481 857,1404 940,1327 981,1223 981,1094 981,1033 971,975 950,920 929,865 892,800 837,725 822,706 774,650 694,558 613,465 500,336 354,170 Z"
         horiz-adv-x="874"
         unicode="2" /><glyph
         id="glyph293"
         d="M 229,170 L 526,170 526,1309 202,1237 202,1421 524,1493 706,1493 706,170 1003,170 1003,0 229,0 229,170 Z"
         horiz-adv-x="821"
         unicode="1" /><glyph
         id="glyph295"
         d="M 586,1360 C 493,1360 422,1309 375,1207 328,1104 304,950 304,745 304,540 328,387 375,285 422,182 493,131 586,131 680,131 751,182 798,285 845,387 868,540 868,745 868,950 845,1104 798,1207 751,1309 680,1360 586,1360 Z M 586,1520 C 737,1520 852,1454 931,1322 1010,1189 1050,997 1050,745 1050,494 1010,302 931,170 852,37 737,-29 586,-29 435,-29 320,37 241,170 162,302 122,494 122,745 122,997 162,1189 241,1322 320,1454 435,1520 586,1520 Z"
         horiz-adv-x="953"
         unicode="0" /><glyph
         id="glyph297"
         d="M 197,254 L 387,254 387,0 197,0 197,254 Z"
         horiz-adv-x="213"
         unicode="." /><glyph
         id="glyph299"
         d="M 216,254 L 406,254 406,82 258,-238 142,-238 216,82 216,254 Z"
         horiz-adv-x="292"
         unicode="," /><glyph
         id="glyph301"
         d="M 867,1247 L 544,1053 867,858 814,760 512,963 512,586 410,586 410,963 107,760 55,858 378,1053 55,1247 107,1346 410,1143 410,1520 512,1520 512,1143 814,1346 867,1247 Z"
         horiz-adv-x="821"
         unicode="*" /><glyph
         id="glyph303"
         d="M 148,1554 L 292,1554 C 382,1397 449,1243 494,1092 539,941 561,792 561,643 561,494 539,343 494,192 449,41 382,-113 292,-270 L 148,-270 C 227,-117 287,35 326,186 365,337 385,489 385,643 385,797 365,949 326,1099 287,1249 227,1401 148,1554 Z"
         horiz-adv-x="451"
         unicode=")" /><glyph
         id="glyph305"
         d="M 572,1554 C 491,1401 432,1249 393,1099 354,949 334,797 334,643 334,489 354,337 393,186 432,35 492,-117 572,-270 L 428,-270 C 337,-113 270,41 225,192 180,343 158,494 158,643 158,792 180,941 225,1092 270,1243 337,1397 428,1554 L 572,1554 Z"
         horiz-adv-x="451"
         unicode="(" /><glyph
         id="glyph307"
         horiz-adv-x="582"
         unicode=" " /></font></defs><defs
     id="defs309"><font
       horiz-adv-x="2048"
       id="EmbeddedFont_4"><font-face
         id="font-face312"
         descent="476"
         ascent="1879"
         font-style="normal"
         font-weight="bold"
         units-per-em="2048"
         font-family="DejaVu Sans Condensed embedded" /><missing-glyph
         id="missing-glyph314"
         d="M 0,0 L 2047,0 2047,2047 0,2047 0,0 Z"
         horiz-adv-x="2048" /><glyph
         id="glyph316"
         d="M 507,1438 L 507,1120 839,1120 839,864 507,864 507,389 C 507,337 516,302 535,284 553,265 590,256 645,256 L 811,256 811,0 535,0 C 408,0 317,30 264,89 211,148 184,248 184,389 L 184,864 24,864 24,1120 184,1120 184,1438 507,1438 Z"
         horiz-adv-x="848"
         unicode="t" /><glyph
         id="glyph318"
         d="M 634,891 C 563,891 508,863 471,806 434,749 415,666 415,559 415,452 434,370 471,313 508,256 563,227 634,227 705,227 759,256 796,313 833,370 851,452 851,559 851,666 833,749 796,806 759,863 705,891 634,891 Z M 634,1147 C 808,1147 944,1095 1041,991 1138,887 1187,743 1187,559 1187,375 1138,231 1041,127 944,23 808,-29 634,-29 461,-29 325,23 227,127 128,231 79,375 79,559 79,743 128,887 227,991 325,1095 461,1147 634,1147 Z"
         horiz-adv-x="1139"
         unicode="o" /><glyph
         id="glyph320"
         d="M 1168,682 L 1168,0 844,0 844,111 844,522 C 844,619 842,685 838,722 834,759 827,786 818,803 805,826 788,845 767,858 745,871 720,877 693,877 626,877 573,848 535,791 496,733 477,653 477,551 L 477,0 155,0 155,1120 477,1120 477,956 C 526,1021 577,1070 632,1101 687,1132 747,1147 813,1147 929,1147 1017,1107 1078,1028 1138,949 1168,833 1168,682 Z"
         horiz-adv-x="1033"
         unicode="n" /><glyph
         id="glyph322"
         d="M 1089,934 C 1130,1003 1178,1056 1234,1093 1290,1129 1352,1147 1419,1147 1535,1147 1623,1107 1684,1028 1745,949 1775,833 1775,682 L 1775,0 1451,0 1451,584 C 1452,593 1452,602 1453,611 1453,620 1453,634 1453,651 1453,730 1443,788 1422,824 1401,859 1366,877 1319,877 1258,877 1211,849 1178,793 1145,737 1127,656 1126,550 L 1126,0 802,0 802,584 C 802,708 792,788 773,824 754,859 719,877 670,877 609,877 561,849 528,793 494,736 477,656 477,551 L 477,0 153,0 153,1120 477,1120 477,956 C 516,1019 562,1067 613,1099 664,1131 721,1147 783,1147 852,1147 914,1128 968,1091 1021,1054 1062,1001 1089,934 Z"
         horiz-adv-x="1642"
         unicode="m" /><glyph
         id="glyph324"
         d="M 841,190 C 796,125 747,77 694,46 641,15 579,0 508,0 385,0 284,54 204,162 123,269 83,406 83,573 83,740 123,878 204,985 284,1092 385,1145 508,1145 579,1145 641,1130 694,1099 747,1068 796,1020 841,954 L 841,1120 1165,1120 1165,113 C 1165,-67 1114,-204 1012,-300 909,-394 761,-442 566,-442 503,-442 443,-437 384,-426 325,-415 265,-399 206,-377 L 206,-98 C 263,-134 318,-161 372,-179 426,-196 480,-205 535,-205 640,-205 718,-179 767,-128 816,-77 841,4 841,113 L 841,190 Z M 628,887 C 561,887 510,860 473,805 436,750 417,673 417,573 417,470 435,393 471,340 507,287 559,260 628,260 695,260 748,287 785,342 822,397 841,474 841,573 841,673 822,750 785,805 748,860 695,887 628,887 Z"
         horiz-adv-x="1086"
         unicode="g" /><glyph
         id="glyph326"
         d="M 841,956 L 841,1556 1165,1556 1165,0 841,0 841,162 C 796,96 747,48 694,17 641,-14 579,-29 508,-29 384,-29 282,26 203,136 123,245 83,386 83,559 83,732 123,873 203,983 282,1092 384,1147 508,1147 578,1147 640,1132 694,1101 747,1070 796,1021 841,956 Z M 628,231 C 697,231 750,259 787,315 823,371 841,452 841,559 841,666 823,747 787,803 750,859 697,887 628,887 560,887 508,859 472,803 435,747 417,666 417,559 417,452 435,371 472,315 508,259 560,231 628,231 Z"
         horiz-adv-x="1086"
         unicode="d" /><glyph
         id="glyph328"
         d="M 969,1085 L 969,793 C 926,826 882,851 838,867 793,883 747,891 700,891 610,891 540,862 490,804 440,745 415,664 415,559 415,454 440,373 490,315 540,256 610,227 700,227 751,227 799,235 844,252 889,269 931,293 969,326 L 969,33 C 919,12 868,-3 816,-14 764,-24 712,-29 660,-29 478,-29 336,23 233,127 130,230 79,374 79,559 79,744 130,888 233,992 336,1095 478,1147 660,1147 713,1147 765,1142 816,1132 867,1121 918,1106 969,1085 Z"
         horiz-adv-x="927"
         unicode="c" /><glyph
         id="glyph330"
         d="M 9,1493 L 1247,1493 1247,1202 802,1202 802,0 455,0 455,1202 9,1202 9,1493 Z"
         horiz-adv-x="1245"
         unicode="T" /><glyph
         id="glyph332"
         d="M 1104,1446 L 1104,1130 C 1031,1167 959,1194 889,1213 818,1232 752,1241 689,1241 606,1241 545,1228 506,1203 466,1178 446,1138 446,1085 446,1045 459,1014 486,992 513,969 561,950 632,934 L 779,901 C 929,868 1035,817 1098,749 1161,681 1192,584 1192,459 1192,294 1148,172 1061,92 973,11 839,-29 658,-29 573,-29 487,-20 402,-2 316,16 230,43 144,78 L 144,403 C 230,352 313,314 393,289 473,263 550,250 625,250 700,250 758,264 799,292 839,320 859,360 859,412 859,459 845,495 818,520 791,545 736,568 654,588 L 520,621 C 386,653 288,704 226,774 163,844 132,938 132,1057 132,1206 175,1320 262,1400 349,1480 473,1520 634,1520 708,1520 784,1514 862,1502 940,1489 1021,1471 1104,1446 Z"
         horiz-adv-x="1086"
         unicode="S" /><glyph
         id="glyph334"
         d="M 169,1493 L 744,1493 C 915,1493 1047,1451 1138,1367 1229,1282 1275,1162 1275,1006 1275,849 1229,729 1138,645 1047,560 915,518 744,518 L 516,518 516,0 169,0 169,1493 Z M 516,1214 L 516,797 707,797 C 774,797 826,815 863,852 900,888 918,939 918,1006 918,1073 900,1124 863,1160 826,1196 774,1214 707,1214 L 516,1214 Z"
         horiz-adv-x="1112"
         unicode="P" /><glyph
         id="glyph336"
         d="M 169,1493 L 610,1493 916,694 1224,1493 1664,1493 1664,0 1336,0 1336,1092 1027,287 807,287 498,1092 498,0 169,0 169,1493 Z"
         horiz-adv-x="1509"
         unicode="M" /><glyph
         id="glyph338"
         d="M 169,1493 L 1104,1493 1104,1202 516,1202 516,924 1069,924 1069,633 516,633 516,0 169,0 169,1493 Z"
         horiz-adv-x="953"
         unicode="F" /><glyph
         id="glyph340"
         d="M 1235,82 C 1171,45 1105,18 1036,-1 967,-20 895,-29 820,-29 596,-29 419,41 288,180 157,319 92,507 92,745 92,984 157,1173 288,1312 419,1451 596,1520 820,1520 895,1520 967,1511 1036,1492 1105,1473 1171,1446 1235,1409 L 1235,1100 C 1170,1149 1107,1184 1045,1207 982,1230 917,1241 848,1241 724,1241 627,1197 556,1109 485,1021 450,900 450,745 450,591 485,470 556,382 627,294 724,250 848,250 917,250 982,261 1045,284 1107,307 1170,342 1235,391 L 1235,82 Z"
         horiz-adv-x="1166"
         unicode="C" /><glyph
         id="glyph342"
         d="M 985,272 L 443,272 357,0 9,0 507,1493 920,1493 1418,0 1069,0 985,272 Z M 529,549 L 897,549 714,1143 529,549 Z"
         horiz-adv-x="1430"
         unicode="A" /></font>
</defs>
</svg>
